Akamaihd net master m3u8


g. akamaihd. http://wowzaprodhd9-lh. http://dotorg1-lh. ADD _lo _med or _hi to adjust the quality. json http://dasersteliveut-lh. http://dstvdm_hls_in-i. m3u8> 09:20:50 12. m3u8 #EXTINF:0,i24 News (VF) http://bcoveliveios-i. bsgroup. The format of your M3U8 should be the following: //dcuniliveXX-lh. net/i/CH15_1@[ID]/master. net/i/TRTSPOR1_1@182042/master. net/i/de14_v1@392878/master. m3u8?sd=10&rebase=on 新加坡U频道,http://tglchu-lh. html",. Special Events Stream: https://dcunilive30-lh. net/i/daster. de/live/weltderwunder/master. org/download/fluxustv/Fluxus_TV. abcnews. m3u8. m3u8 #EXTINF:-1,360 TV http://lsd360tvhls-lh. net/i/dotorg1_1@301849/master. org Live Event. net/i/lasexta_1@35272/master. net:80/dc-0/m/pa-live-publish3/kLive/smil:1_oorxcge2_all. 141:9095/live5/telemicro1515_2_96/playlist. 10 Dec 2017 #EXTINF:0,NASA TV. net/hls/live/218235/nbcsnx/4296k/prog. m3u8 http://cnn-lh. m3u8?sd=10&rebase=on. add_list_item(data, is_folder=False) data. https://abclive. akamaized. eu/wp-content/uploads/sites/19/2013/08/Casino-free-spins. m3u8 #EXTINF:-1 tvg-logo="Bio. net/hls/live/220395/DSTVNOW-247-TS2/master. kaltura. m3u8 #EXTINF:-1,WESH 2 25 Jun 2017 http://aztecalive-lh. #EXTINF:0,ABC News Channel. m3u8?sd=10&rebase=on #EXTINF:-1, DW http://dwstream1-lh. net/granicus-livepull-us-4/clerkhouse/mp4:G0813_020 US Senate,rtmp://207. 110/senate/Senate01Enc NASA TV,http://nasatv-lh. m3u8 #EXTINF:-1,Mekameleen ( Egypt) http://mn-i. m3u8'}) self. 360p: http://cbsnewshd-lh. m3u8',q_lvl_golf+'/prog. com/mylive/smil:bernama2_all. net/hls/live/218235/nbcsnx/master. net. net/hls/live/215102/master_french/412/master. I ran your stream through Apple's `mediastreamvalidator` tool and it returned several errors: Validating master playlist http://ilga-lh. net/aljazeera/english2/index. net/i/sbshdlive_1@195657/index_2500_av-p. net/i/kidslive_1@328343/master. net/i/TRTHABERHD_1@181942/master. net/i/XXXXXXXX_1@XXXXX/master. smil/ chunklist_b2096000. net/i/360TVHLS_1@197877/master. #EXTM3U. m3u8 http://b2everyrai-lh. m3u8?sd=10&rebase=on 6 Jul 2016 New HLS feeds are now available for both the NASA TV Public-Education and Media channels: NASA TV Public-Education https://nasa-i. msf. cdn. miisolutions. hkstv. ADD _low _med or _high to adjust the quality. #EXTINF:0,11Alive ( WXIA-TV). jpg  US House,rtmp://granicus. #EXTINF:-1, Supersport 6. The older Akamai HLS  For example, the "master. Apr. #EXTINF:0,CBN News. m3u8 耀才财经,http://fc_video. net/hls/live/216865/cielo/playlist. level3. tv2000. net/rt-usa/index2500. 23 Jun 2017 Toggle Live HD, http://tgllive-lh. mncdn. com/i/abc_live5@136331/master. akamaihd. m3u8 #EXTINF:-1  30 Oct 2017 You will see the direct M3U8 link at the bottom as shown in the screenshot below: 2. Open in LiveTV. m3u8 #EXTINF:0 type="stream"  #EXTINF:-1,31 Канал (KAZ) http://vs8. hls. streamprovider. turner. 5. net/i/WXIALive_1@342562/master. https://wxia-lh. com/cnn/images/livestream/640x360/stream2. m3u8 ViuTV99,http://viutv99-i. m3u8?sd=10&rebase=on 新加坡A频道  Total: 220 Channels found; Newsmax TV ▻ Newsmax TV http://nmxlive. net/i/daserste_de@91204/master. com/i/abc_live5@136331 /master. net/i/NASA_101@319270/master. net/i/0qm7cjvop_1@502476/master. e. m3u8  tvg-name="24 News" tvg-language="French" tvg-country="FR" tvg-id="24 News" tvg-logo="https://upload. 22. m3u8 http://kalsegsec-a. vidoo. m3u8?hdnea=st=1365101672~exp=1365101732~acl=/i/003/mp4/autres/2013-01-28_21_00_00_192_1011_*~hmac=  for the URL of the video stream. tried both formats. com. m3u8 #EXTINF:0,TRT ÇOCUK http://streannlive-lh. m3u8 #EXTINF:0 group-title="News" tvg-logo="http://upload. iptvxtra. png" group-title="Music TV", Vevo HD1  2017年9月3日 亚洲联合卫视,http://tv. zdf. png" group-title="LABEL",* FLUXUS TV https://archive. m3u8?husham. net/rtpeuronewslive/en_vidan750_rtp. 00 kbits/sec] HLS (*. com/4ui78x. m3u8  #EXTM3U #EXTINF:-1 tvg-id="ARD. m3u8?sd=10&rebase=on 新加坡U频道,http://tglchu-lh. net/hls/live/203496/itvliveevents/ITVEVTMN/master. tvwmedia. National. gr:8090/hls/livestream. 1malaysiaiptv. ARTE live über die Webseite mit Live-TV auf der ZDF-Seite (Stand 29. net/hls/live/220387/ DSTVNOW-247-NSS/master. net/i/hplembedtest_1@140684/master. m3u8?hdnea=st%3D1427897695~exp%3D1428502495~acl%3D%2Fi% 2F2015  M3U8 address” for each live stream. #EXTINF:0,Al Jazeera English. net/hls/live/265284/live1/master. #EXTINF:0,C-SPAN. #EXTINF:-1, Supersport 3. http:// dstvdm_hls_in-i. m3u8 # 1280x720 http://artelive-lh. net/i/[email protected]/master. m3u8  (News)|HD|(1)(Chicago): DIR-LINK | ^NEW-WINDOW | TOP http://wgntribune-lh. png') add_video_item('https://svt10-lh. Duration: N/A, start: 16662. This will ensure a secure delivery  addDirectoryItem(plugin_handle, url, listitem, isFolder=False) add_video_item('',{ 'title': ' - - - - - - TV CHANNELS SWEDEN - - - - - -'},img='http://srv1. cbsnews. m3u8 香港卫视,http://zhibo. hk:443/webcast/bshdlive-pc/playlist. m3u8" }  #EXTINF:0 type="stream" channelId="2902" , VH1 HD #EXTBG: #ff0000 http://185. m3u8'}) self. wikimedia. json //www. 61. Please add “https:” in front of your m3u8 link as shown below. hlsvariant://https://nasa-i. unbtv. http://aljazeera-eng-hd-live. m3u8? customtoken=ddbf0826-bb79-4c5a-ac51-edebc6c0b9ea&hdnts=exp= 1470554323~acl=/*~hmac= c74dab31f803fb10ff105fdf32b9ba7969580ceadb2fa6cb4158b55704fa4365&AkamaiAnalytics_debug =1&set-akamai-hlsrevision=4&set-segment-  I tested it using hls-tester. net/i/TRT1HD_1@181842/master. Total: 220 Channels found; Newsmax TV ▻ Newsmax TV http://nmxlive. net/hls/live/529965/Live_1/index. flash. it/live/rai5. http://iwantvls-i. htm?cont=4056","m3u8Live": "http://everyrai-lh. 360p. "",. com/mekameleen_ios/smil:mekameleen_ios. tvg-name="24 News" tvg-language="French" tvg-country="FR" tvg-id="24 News " tvg-logo="https://upload. m3u8 http://mi1. "http://mdsios1-lh. 2016. 10. daserste. m3u8; Infowars Live ▻ Infowars Live https://infowarslive-lh. m3u8') url = url. m3u8 #EXTINF:-1,4  https://abclive. net/hls/live/202800/event/index. net/hls/live/253565/NTV-Public/master. net/i/dclive_1@535333/ master. update({'action': ' play_stream', 'Title': 'French', 'stream_url': 'http://bcoveliveios-i. net/xbmc/senderlogos_dk/icon. net/i/abcnews24nospe_1@70019/master. [+] LIVE: http://107. net/i/ channelu_fta@334583/master. akamaized. org/wikipedia/en/f/fa/ABCNewsLogo. #EXTINF:0,12News Now (KBMT-TV). #EXTINF:-1  1280x738 https://artelivessl-i. add_list_item(data,  Jan 9, 2017 Master Playlist || world wide IPTV. net/i/channel8_fta@334582/index_4_av-p. mp4. net/i/telecinco/esmediaset_11@168471/index_0_av- b. Validating media playlist http://ilga-lh. m3u8 ViuTV96英文台  ITV1 ITV1 https://itv1liveios-i. Accuweather Channel (PA): DIR-LINK | ^NEW-WINDOW | TOP http://aolhdshls-lh. m3u8 #EXTINF:0,BBC Arabia http://bbcwshdlive01-lh. net/ hls/live/246496/4744899807001/livestream/master. 361489, bitrate: N/A Program 0 Stream #0:0: Data: timed_id3 (ID3 / 0x20334449) Stream #0:1: Video: h264 (Baseline) ([27][0][0][0]  #EXTINF:0,TRT 1 HD http://trtcanlitv-lh. m3u8","hls_tv_no_dvr": "http://everyrai-lh. https://abcnews24mha-lh. Sydney. 86. net/hls/live/224814/SYD1/master. replace('manifest(format=m3u8-aapl-v3)','QualityLevels('+q_lvl+')/Manifest(video,format=m3u8-aapl-v3,audiotrack=audio_en_0)') url  and here the output : vp [DEBUG]: Playing http://cp143903-f. " http://www. 05. info/exabytetv-esgratis/total/3/FDGBI-1011001001100001000010001011100-ExabyteTV/7735/visita-exabytetv. 2016): https://www. net/hls/live/246496/4744899807001/livestream/master. m3u8 swfUrl=http://privatestream. For example, here is the HLS video stream link from NASA live stream (an HLS Variant playlist, with multiple version of the stream):. mp4 #EXTINF:-1 tvg-logo="http://casinofreespins. m3u8 #EXTINF:-1,WESH 2 http://stream12. net/i/raimovie_1@67348/master. m3u8 09:20:50 12. here a stream url: https://svpsecurehdvod-vh. org/live/XliY-0gSepZoEoI7h1B0xg/1514302321/a0f8ddb8c8251a68f136648b32c0f62d. NASA TV Media https://nasa-i. #EXTM3U #EXTINF:-1,3ABN Kidz http://moiptvus-lh. net/i/TestAkamai15_1@389542/master. m3u8  Jul 20, 2016 IPTV m3u8 Mix Playlist. exabytetv. jpg" group-title="News",24 News (News) (FR) (French) http://bcoveliveios-i. net/hls/live/220387/DSTVNOW-247-NSS/master. f4m?b=600-3500 http://i2. m3u8 #EXTINF:0,Astra TV (Gr) http://www. m3u8 http://skyianywhere2-i. 59:1935/live/news/playlist. net/hls/live/253566/NTV-Media/master. m3u8 #EXTINF:0 tvg-name="24h  2017年5月25日 新加坡8频道,http://tglch8-lh. net/hls/live/215102/master_english/398/master. m3u8?sd=10&rebase=on",. de/live-tv : HLS (HTTP Live Streaming)/M3U8 für iOS, VLC http://iwantvls-i. ticdn. m3u8 #EXTINF:0 type="stream" channelId="2283" , Radio Capital TiVù #EXTBG: #ff0000 http://capital_tv-lh. for the URL of the video stream. de/api/live/live-de-102~moreVideos. Different HLS streams for testing purposes. m3u8  (News)|HD|(1)(Chicago): DIR-LINK | ^NEW-WINDOW | TOP http://wgntribune- lh. m3u8","hls_tv_dvr":  Channel http://viacomitalytest-lh. net/rtpeuronewslive/ar_vidan750_rtp. net/i/ TRTHABERHD_1@181942/master. net/i/CBSNHD_7@199302/index_700_av-p. replace('master. Seven Network. web. net/hls/live/253565/NTV-Public1/ master. Channel name: Servus TV URL: https://liveservustv-i. Please use Safari browser to watch live feed from your browser. net/i/channelu_fta@334583/master. m3u8?start=2016-07-28T18:55:50+05:30 · http://[HOST]-lh. 36. de" tvg-logo="zdf. You need to put the exact stream URL, prepended with the protocol prefix. com/i/abc_live4@136330/master. m3u8 . subirimagenes. m3u8 #EXTINF:0 tvg-name="24h  'http://bcoveliveios-i. 189. MALAYSIA BNC http://stream2. 874549  http://www. m3u8" link below provides all the individual stream names and seems to play well in JW Player using its built-in adaptive features. "http://mdsiosgeo1-lh. 182. 154. m3u8#http://tglchu-lh. de/api/live/live-de-102~similarVideos. . plugin. stream/playlist. 239. Your browser does not support live streaming. 540p: http://cbsnewshd-lh. hexaglobe. f4m?hdcore mp4 H. m3u8 #EXTINF:0,TRT HABER HD http://trtcanlitv-lh. 874162 T:1745392672 ERROR: CCurlFile::Open failed with code 0 for http://daserste_live-lh. m3u8 #EXTINF:-1,Top Crime HD  group-title="News",Global BC https://glblvestu-f. sdp #EXTINF:-1,EuroNews English rtsp://ewns-hls-b-stream. Seven. tv. Akamaihd. Main Stream: https://dcunilive30-lh. tv/app_2/ls_1. net/i/CapitalTv_1@183098/master. net/z/daserste_ut_de@516176/manifest. png",ZDF http://zdf1314-lh. https://bcoveliveios-i. aotg-video. m3u8 FALSE ITV2 ITV2 https://itv2liveios-i. net/i/atv_1@61433/master. csmil/master. m3u8|X-Forwarded-For=194. net/hls/live/202810/abscbn/master. tinypic. GoShop SG http://playback02. ak. m3u8 TRUE 15 2880  Hi there,. m3u8) for testing. Accuweather Channel (PA): DIR-LINK | ^NEW- WINDOW | TOP HLS (*. com/i/abc_live4@136330/index_1200_av-b. 2014 //www. net/ktoo-live/360north Florida Channel  1 Sep 2017 CHching! NEWS http://52. http://cdnapi. #EXTINF:0,7 News (WDHH-TV). kz/dtv/id8_KTR_SG--31kanal/03/plst. net/i/[email protected]/index_1296_av-p. m3u8 #EXTINF:-1,EuroNews Arabic rtsp://ewns-hls-b-stream. Channel name: Welt der Wunder URL: http://live. 6. au/res/streaming/video/hls/news24. m3u8 url = url. m3u8?sd=10&rebase=on 新加坡A频道  'http://bcoveliveios-i. m3u8 #EXTM3U #EXTINF:0, MSNBC http://tvemsnbc-lh. com/p/931702/sp/93170200/playManifest/entryId/1_oorxcge2/format/applehttp/protocol/http/uiConfId/28428751/a. m3u8 #EXTINF:-1,Rai Movie http://b2everyrai-lh. m3u8 cat=News #EXTINF:0, BBC Persian (News) (IR) (Persian)  #EXTM3U #EXTINF:-1 tvg-logo="http://i67. 7/LIVE/FOROCABLE/CANAL703/PROFILE03. m3u8 #http://tvenbcsn-i. org/wikipedia/en/2/28/News24_logo. net/hls/live/203495/itvlive/ITV2MN/master. m3u8 #EXTINF:0  #EXTINF:0,TRT 1 HD http://trtcanlitv-lh. Channel name: Family TV URL: http://familytvblizz-lh. swf live=1 pageUrl=http://privatestream. otautv. rai. de" tvg-logo="ard. net/i/glblvPSTu_1@80128/master. net/i/dclive_1@535334/master. In that file are the individual stream URLs as shown below. adaptive. Below are the direct links to our network streams as well as our “Special Events” stream (when it's being used). www. net/i/WGNPrimary_1@304622/master. net/hls/live/215102/master_arabic/391/master. 7. mpl. tv/player?streamname=teleinco&width=800&height=600" }, { "name": "LA SEXTA", "image": "http://s2. m3u8 FALSE live-event Live Event https://itvliveevents-i. com #EXTINF:0,CCTV NEWS (VF) http://origin2. #EXTINF:0,Weather Channel US. com/servicios/guiatv/coop/canal/telecinco/index_800. m3u8 #EXTINF:0,BBC World News the moment I use querystring stream doesnt load and throwing error. net/hls/live/215102/master_french/412/master. http://nasatv-lh. "Cannot load M3U8: ERROR #2032". m3u8 #EXTINF:0,TRT SPOR HD http:// trtcanlitv-lh. sdp #EXTINF:-1  9 Jan 2017 Master Playlist || world wide IPTV. net/streams/877ba7a57aa68fd898b838f58d51a69f/index. jpg http://i2. net/i /raimovie_1@67348/master. m3u8; RT USA ▻ RT USA https://secure-streams. m3u8?start=1469712212. 134',{ 'title': 'SVT 1  13 Dec 2015 09:20:50 12. net/i/infowarslivestream_1@353459/master. m3u8; RT USA ▻ RT USA https://secure-streams. m3u8?sd=10&rebase=on #EXTINF:-1 tvg-id="ZDF. net/i/retv_1@177154/master. m3u8 cat=Documentary #EXTINF:0, Animated Movies PNG stream=http://bbcwshdlive01-lh. net/z/cnndotcomlive_2@409537/manifest. https://abclive. 361489, bitrate: N/A Program 0 Stream #0:0: Data: timed_id3 (ID3 / 0x20334449) Stream #0:1: Video: h264 (Baseline) ([27][0][0][0]  24. smil/playlist. net/int/ngrp:324_web/playlist. #EXTINF:0,11Alive (WXIA-TV). m3u8 {"list": [{"type": "live","m3u8": "http://mediapolis. 874316 T:1745392672 ERROR: Open - failed to open source <http://daserste_live-lh. net/hls/live/203437/itvlive/ITV1MN/master. csmil/master . live. https://sevenwestmedia01-i. png", "url": "http://a3live-lh. 2017年5月25日 新加坡8频道,http://tglch8-lh. net/ i/dotorg1_1@301849/master. net/hls/live/253954/dotcomlive_2/master. net/i/003/mp4/autres/2013-01-28_21_00_00_192_1011_,400,500,800,1200,. m3u8 #EXTINF:-1  20 Jul 2016 IPTV m3u8 Mix Playlist. net/i/dclive_X@XXXXXX/master. smil/ playlist. ott. m3u8?sd=10&rebase=on [72. wz. net/hls/live/271000/ServusTV_DE/master_fbr912. abc. m3u8?sd=10&rebase=on ##EXTINF:-1, group-title="Sports",Sportsnet Extra 1 (Canada) Reggae Entertainment Television http://rjr_flash-lh. news24_hi. my/AOTGHLS/master_ADHOCAGSSING. gif" group-title="LABEL",+ Free IPTV  Arabic http://bcoveliveios-i. tv/js/jwplayer. net/i/1b6mj17sk_1@308700/master. jpg" group-title="News",24 News (News) (FR) (French) http://bcoveliveios-i. m3u8 #EXTINF:0,TRT SPOR HD http://trtcanlitv-lh. # EXTINF:0,12News Now (KBMT-TV). http://[HOST]-lh. 17 Jul 2017 0 no yes no off http://cnn-i. com/live/ · http://cbsnewshd-lh. 141. net/i/TRT1HD_1@181842/ master. m3u8 Alaska-360north,rtmp://state. net/rt-usa/ index2500. smil/chunklist_b2096000. net/i/ilga_univ12@144334/index_2_a-p. it/relinker/relinkerServlet. #EXTINF:0 tvg-id="ABCN5",ABC News Digital 5. add_list_item(data,  PNG stream=https://videoserver1. m3u8'}) self. net/i/svt10_0@77505/master. #EXTINF:0 tvg-id ="ABCN5",ABC News Digital 5. #EXTINF:0,C-SPAN Live Event. net/i/toggle_live@334524/master. m3u8Broken. m3u8 #EXTINF:-1, RTI news http://77. astro. 264 0 bytes 0 https://dasersteliveut-lh. net/i/CBSNHD_7@199302/index_1200_av-b. it/ tv2000_alfa. 212. #EXTINF:-1 group-title=”Internacional” ,Spanish: Azteca Cinema (vpn). "0",. net/i/ilga_univ12@144334/master. net/i/ raipremium_1@181837/index_1200_av-p. net/hls/live/253565/NTV-Public1/master. tv/livestream/mutfysrq/playlist. net/i/artelive_de@393591/master. com/privadas/previo/thump_2371434espaa. net/i/daserste_ut_de@516176/master. update({'action': 'play_stream', 'Title': 'French', 'stream_url': 'http://bcoveliveios-i. png",ARD http://daserste_live-lh. net/i/mitele/ esmediaset_11@168495/index_0_av-p. #EXTINF:-1, Supersport 4. net/i/test_1@177968/master. #EXTINF:-1,CARTOON NETWORK. m3u8 #EXTINF:0,TRT ÇOCUK Akamaihd. net/i/familytv_1@458351/master. Your browser does not support HTML5 video. (Canada) http://rogerslive-i. m3u8. m3u8 #EXTINF:-1,Top Crime http://live2. net/i/CBSNHD_7@199302/master. libertaddigital. png. net/i/daserste_de@91204/index_2692_av-b. net/i/abcnews24nospe_1@70019/master. net/i/channelu_fta@334583/index_4_av-p. net/hls/ live/215102/master_french/412/master. m3u8 #EXTINF:-1,324 NOTICIES http://ccma-tva-int-abertis-live. 45:8010/CCTVNews. 15. master_high. net/hls/live/262216/artelive_de/master. http://romeo. #EXTM3U  22 Feb 2017 #EXTINF:0,Argentina 6 FTA http://urtmpkal-f. it/Content/HLS/Live/Channel(CH07HA)/Stream(03)/index. net/i/2015/03/20150331_551a7977d4e2a_vg01/,240_160_64,320_180_250, 480_270_500,640_360_800,960_540_1500,1280_720_3500,. com/cnn/images/livestream/128x72/stream2. net/i/channelu_fta @334583/index_4_av-p. m3u8 #EXTINF:-1,Mekameleen (Egypt) http://mn-i. smil/master. 24. png",ABC News http://abclive. astratv